睿派克技术论坛

 
查看: 916|回复: 29
收起左侧

[日韩] 空气人偶.Air Doll.2009.JP.BluRay.1920x1040p.x264.FLAC-KOOK.[中英双字] 9.85GB

[复制链接]
发表于 2018-11-13 15:06 | 显示全部楼层 |阅读模式 <



◎译  名 空气人偶/充气人偶/充气娃娃/空气人形(台)/空气娃娃/援胶女郎(港)/Air Doll
◎片  名 空気人形
◎年  代 2009
◎产  地 日本
◎类  别 剧情/奇幻
◎语  言 日语
◎上映日期 2009-05-14(戛纳电影节)/2009-09-26(日本)
◎IMDb评分  6.9/10 from 5,126 users
◎IMDb链接  https://www.imdb.com/title/tt1371630/
◎豆瓣评分 7.4/10 from 25,509 users
◎豆瓣链接 https://douban.com/subject/3534824/
◎片  长 125分钟
◎导  演 是枝裕和 Hirokazu Koreeda
◎编  剧 是枝裕和 Hirokazu Koreeda
◎主  演 裴斗娜
       Arata
       板尾创路
       余贵美子
       岩松了 Ry? Iwamatsu
       寺岛进
       小田切让
       富司纯子
       星野真里

◎标  签 日本 | 是枝裕和 | 日本电影 | 裴斗娜 | 小田切让 | 2009 | 电影 | 剧情

◎简  介
  他(坂尾创路 饰)是一个唯唯诺诺在餐馆打工的侍应生,她(裴斗娜 饰)是一个只值5000多日元过时的充气人偶。在孤独漫长的夜晚,她慰藉着他空虚的心灵与肉体。对他来说,她也许只是寄托情感的替代品。不知曾几何时,她有了自己的思想和知觉,每天在他上班之后,她便穿上衣服独自外出,用好奇的大眼睛注视着这个忙碌的大都市。最终,她在一家录影带出租店停留,仿佛银幕上交错变换的虚幻情节恰恰映射着她那匪夷所思的生命,其心中涌起阵阵波动。她渐渐喜欢上店里的男孩纯一,在这个人人生而空虚的世界上,她的爱情故事不算故事……
  本片根据日本漫画家业田良家的同名作品改编。

◎幕后花絮
    每天在开拍前,裴斗娜总要花很长时间化妆成充气娃娃的样子,她总是一边化妆一边读剧本,经常读着读着就完全融入其中,哭了起来。
    该片是裴斗娜继《琳达琳达》之后,主演的第二部日本电影。
    该片虽然是一部科幻电影,却并没有借助CG,演员完全是真情流露。

◎剧本创作
    坚持拍摄原创故事的是枝导演,这一次破例引援漫画。2000年,是枝导演与业田良家的杰作短篇漫画《Gouda哲学堂:空气人偶》相遇,并立即产生要将其搬上银幕的意想。2001年冬,是枝着手开始准备策划书与剧本雏形,随后的8年,一直未停歇,直到2009年,《空气人偶》终于要问世了。剧本以空气人偶为故事中心,描述了几个人若无其事的人生状态。

◎后期制作
    《空气人偶》于2008年12月17日开拍,2009年1月末杀青,在初夏完成后期制作。而摄影师李屏宾为本片掌镜,美术设计由种田阳平担任。

◎角色设定
    利用充气娃娃的奇特设定,是枝展现出了多种多样的“人际关系”。是枝把片中的人类角色分为两大类,女性角色的关键词是“空虚”和“失落”,有暴食症的白领、害怕变老的中年女子,从小女孩到老奶奶,各种带着夸张感的女性真人角色与充气娃娃形成了多角度的对比;而男性角色的关键词则是“虚拟”和“倒错”,他们无法直接把感情倾注在人身上,而是转向虚拟之物。片中的男男女女仿佛“孤独都市人”的各色剪影,围绕在充气娃娃身边。

◎获奖情况

  第62届戛纳电影节 (2009)
  一种关注单元一种关注大奖(提名) 是枝裕和

  第33届日本电影学院奖 (2010)
  最佳女主角(提名) 裴斗娜

  第4届亚洲电影大奖 (2010)
  最佳女主角(提名) 裴斗娜


  1. General
  2. Unique ID                      : 245624956561935444710653948431529414461 (0xB8C9A55940CC935FA3A47AE906940F3D)
  3. Format                         : Matroska
  4. Format version                 : Version 4 / Version 2
  5. File size                      : 9.85 GiB
  6. Duration                       : 1 h 56 min
  7. Overall bit rate mode          : Variable
  8. Overall bit rate               : 12.1 Mb/s
  9. Movie name                     : KOOK
  10. Encoded date                   : UTC 2018-08-01 16:10:56
  11. Writing application            : mkvmerge v9.4.2 ('So High') 64bit
  12. Writing library                : libebml v1.3.4 + libmatroska v1.4.5
  13. Attachments                    : 正式海报 日本1.jpg / fzgljw.ttf / STKAITI.TTF
  14. Video
  15. ID                             : 1
  16. Format                         : AVC
  17. Format/Info                    : Advanced Video Codec
  18. Format profile                 : [email]High@L4.1[/email]
  19. Format settings, CABAC         : Yes
  20. Format settings, ReFrames      : 4 frames
  21. Codec ID                       : V_MPEG4/ISO/AVC
  22. Duration                       : 1 h 56 min
  23. Bit rate                       : 10.8 Mb/s
  24. Width                          : 1 920 pixels
  25. Height                         : 1 040 pixels
  26. Display aspect ratio           : 1.85:1
  27. Frame rate mode                : Constant
  28. Frame rate                     : 23.976 (24000/1001) FPS
  29. Color space                    : YUV
  30. Chroma subsampling             : 4:2:0
  31. Bit depth                      : 8 bits
  32. Scan type                      : Progressive
  33. Bits/(Pixel*Frame)             : 0.225
  34. Stream size                    : 8.76 GiB (89%)
  35. Writing library                : x264 core 155 r2901 7d0ff22
  36. Encoding settings              : cabac=1 / ref=4 / deblock=1:-3:-3 / analyse=0x3:0x133 / me=umh / subme=9 / psy=1 / psy_rd=1.00:0.00 / mixed_ref=1 / me_range=16 / chroma_me=1 / trellis=2 / 8x8dct=1 / cqm=0 / deadzone=21,11 / fast_pskip=0 / chroma_qp_offset=-2 / threads=24 / lookahead_threads=2 / sliced_threads=0 / nr=0 / decimate=1 / interlaced=0 / bluray_compat=0 / constrained_intra=0 / bframes=3 / b_pyramid=2 / b_adapt=1 / b_bias=0 / direct=3 / weightb=1 / open_gop=0 / weightp=2 / keyint=240 / keyint_min=24 / scenecut=40 / intra_refresh=0 / rc_lookahead=50 / rc=2pass / mbtree=1 / bitrate=10779 / ratetol=1.0 / qcomp=0.60 / qpmin=0 / qpmax=69 / qpstep=4 / cplxblur=20.0 / qblur=0.5 / ip_ratio=1.40 / aq=1:1.00
  37. Language                       : English
  38. Default                        : Yes
  39. Forced                         : No
  40. Audio
  41. ID                             : 2
  42. Format                         : FLAC
  43. Format/Info                    : Free Lossless Audio Codec
  44. Codec ID                       : A_FLAC
  45. Duration                       : 1 h 56 min
  46. Bit rate mode                  : Variable
  47. Bit rate                       : 1 321 kb/s
  48. Channel(s)                     : 2 channels
  49. Channel positions              : Front: L R
  50. Sampling rate                  : 48.0 kHz
  51. Frame rate                     : 11.719 FPS (4096 spf)
  52. Bit depth                      : 24 bits
  53. Stream size                    : 1.07 GiB (11%)
  54. Writing library                : libFLAC 1.2.1 (UTC 2007-09-17)
  55. Language                       : Japanese
  56. Default                        : Yes
  57. Forced                         : No
  58. Text #1
  59. ID                             : 3
  60. Format                         : ASS
  61. Codec ID                       : S_TEXT/ASS
  62. Codec ID/Info                  : Advanced Sub Station Alpha
  63. Duration                       : 1 h 56 min
  64. Bit rate                       : 97 b/s
  65. Count of elements              : 638
  66. Compression mode               : Lossless
  67. Stream size                    : 82.5 KiB (0%)
  68. Title                          : 中英字幕
  69. Language                       : Chinese
  70. Default                        : Yes
  71. Forced                         : No
  72. Text #2
  73. ID                             : 4
  74. Format                         : ASS
  75. Codec ID                       : S_TEXT/ASS
  76. Codec ID/Info                  : Advanced Sub Station Alpha
  77. Duration                       : 1 h 56 min
  78. Bit rate                       : 46 b/s
  79. Count of elements              : 638
  80. Compression mode               : Lossless
  81. Stream size                    : 39.3 KiB (0%)
  82. Title                          : 简体字幕
  83. Language                       : Chinese
  84. Default                        : No
  85. Forced                         : No
  86. Text #3
  87. ID                             : 5
  88. Format                         : ASS
  89. Codec ID                       : S_TEXT/ASS
  90. Codec ID/Info                  : Advanced Sub Station Alpha
  91. Duration                       : 1 h 56 min
  92. Bit rate                       : 46 b/s
  93. Count of elements              : 638
  94. Compression mode               : Lossless
  95. Stream size                    : 39.3 KiB (0%)
  96. Title                          : 繁体字幕
  97. Language                       : Chinese
  98. Default                        : No
  99. Forced                         : No
  100. Text #4
  101. ID                             : 6
  102. Format                         : ASS
  103. Codec ID                       : S_TEXT/ASS
  104. Codec ID/Info                  : Advanced Sub Station Alpha
  105. Duration                       : 1 h 56 min
  106. Bit rate                       : 72 b/s
  107. Count of elements              : 638
  108. Compression mode               : Lossless
  109. Stream size                    : 61.3 KiB (0%)
  110. Title                          : 英文字幕
  111. Language                       : English
  112. Default                        : No
  113. Forced                         : No
  114. Menu
  115. 00:00:00.000                   : en:00:00:00.000
  116. 00:04:27.476                   : en:00:04:27.476
  117. 00:19:00.806                   : en:00:19:00.806
  118. 00:27:18.804                   : en:00:27:18.804
  119. 00:39:40.169                   : en:00:39:40.169
  120. 00:54:38.442                   : en:00:54:38.442
  121. 01:06:03.835                   : en:01:06:03.835
  122. 01:15:34.697                   : en:01:15:34.697
  123. 01:21:50.447                   : en:01:21:50.447
  124. 01:32:23.747                   : en:01:32:23.747
  125. 01:44:40.858                   : en:01:44:40.858
  126. 01:52:31.995                   : en:01:52:31.995
复制代码




种子下载
https://ryanjie.ctfile.com/dir/13551128-30730949-08b31b/

磁力链接:
游客,如果您要查看本帖隐藏内容请回复


空气人偶.Air Doll.2009.JP.BluRay.1920x1040p.x264.FLAC-KOOK.[中英双字] 9.85GB


睿派克技术论坛 - 论坛版权重要提醒:如果你需要回复隐藏贴获取资源,请使用回复框上方的快捷回复,灌水将严惩!
特别注意:任何将论坛原创软件,原创修改软件进行”二次加工“的行为,本论坛将追究其责任
特别提醒:下载安装前请核对MD5值和文件大小,请勿从其他论坛网站下载本论坛的软件!
1、本主题所有言论和图片纯属会员个人意见,与本论坛立场无关
2、本站所有主题由该帖子作者发表,该帖子作者与睿派克技术论坛享有帖子相关版权
3、其他单位或个人使用、转载或引用本文时必须同时征得该帖子作者__cc木槿睿派克技术论坛的同意
4、帖子作者须承担一切因本文发表而直接或间接导致的民事或刑事法律责任
5、本帖部分内容转载自其它媒体,但并不代表本站赞同其观点和对其真实性负责
6、如本帖侵犯到任何版权问题,请立即告知本站,本站将及时予与删除并致以最深的歉意
7、睿派克技术论坛管理员和版主有权不事先通知发贴者而删除本文

     
发表于 2018-11-14 08:43 | 显示全部楼层 <
他(坂尾创路 饰)是一个唯唯诺诺在餐馆打工的侍应生,她(裴斗娜 饰)是一个只值5000多日元过时的充气人偶。在孤独漫长的夜晚,她慰藉着他空虚的心灵与肉体。对他来说,她也许只是寄托情感的替代品。不知曾几何时,她有了自己的思想和知觉,每天在他上班之后,她便穿上衣服独自外出,用好奇的大眼睛注视着这个忙碌的大都市。最终,她在一家录影带出租店停留,仿佛银幕上交错变换的虚幻情节恰恰映射着她那匪夷所思的生命,其心中涌起阵阵波动。她渐渐喜欢上店里的男孩纯一,在这个人人生而空虚的世界上,她的爱情故事不算故事……   本片根据日本漫画家业田良家的同名作品改编。

回复 支持 反对

使用道具 举报

     
发表于 2018-11-13 20:19 | 显示全部楼层 <
而男性角色的关键词则是“虚拟”和“倒错”,他们无法直接把感情倾注在人身上,而是转向虚拟之物。片中的男男女女仿佛“孤独都市人”的各色剪影,围绕在充气娃娃身边。

回复 支持 反对

使用道具 举报

发表于 2018-11-15 08:03 | 显示全部楼层 <
空气人偶.Air Doll.2009.JP.BluRay.1920x1040p.x264.FLAC-KOOK.[中英双字] 9.85GB

回复 支持 反对

使用道具 举报

     
 成长值: 2187
发表于 2018-11-13 15:24 | 显示全部楼层 <
看了LZ的帖子,我只想说一句很好很强大!

回复 支持 反对

使用道具 举报

     
发表于 2018-11-13 15:40 | 显示全部楼层 <
这种片子好像都不错!

回复 支持 反对

使用道具 举报

发表于 2018-11-13 15:56 | 显示全部楼层 <
看了LZ的帖子,我只想说一句很好很强大!

回复 支持 反对

使用道具 举报

     
发表于 2018-11-13 17:11 | 显示全部楼层 <
啥也不说了,楼主就是给力!

回复 支持 反对

使用道具 举报

     
发表于 2018-11-13 17:54 | 显示全部楼层 <
啥也不说了,楼主就是给力!

回复 支持 反对

使用道具 举报

     
发表于 2018-11-13 17:55 | 显示全部楼层 <
       
看了LZ的帖子,我只想说一句很好很强大!

回复 支持 反对

使用道具 举报

发表于 2018-11-13 18:15 | 显示全部楼层 <
人造的人偶,突然有了属于她自己的思想。

回复 支持 反对

使用道具 举报

发表于 2018-11-14 08:01 | 显示全部楼层 <
有店员看了。

回复 支持 反对

使用道具 举报

您需要登录后才可以回帖 登录 | 立即注册

本版积分规则