睿派克技术论坛

 
查看: 1574|回复: 117
收起左侧

[日韩] 两个妈妈.Two Mothers.2017.KR.WEB-DL.1080P.韩语中字.KOOK

  [复制链接]
发表于 2018-11-13 14:37 | 显示全部楼层 |阅读模式 <


◎译  名 两个妈妈/两个母亲
◎片  名 두 엄마
◎年  代 2017
◎产  地 韩国
◎类  别 剧情/爱情/情色
◎语  言 韩语
◎上映日期 2017-08-12(韩国)
◎豆瓣评分 5.0/10 from 174 users
◎豆瓣链接 https://douban.com/subject/27098628/
◎片  长 80分钟(韩国)
◎导  演 이도시
◎主  演 송인호
       이유찬
       유진

◎标  签 韩国电影 | 情色 | 韩国 | 伦理片 | A级 | 爱情 | 限制级 | 2017

◎简  介

  两个要好的朋友,彼此的妈妈!
  同情是因为暗恋的女孩和我伤心的小哥哥亲兄弟般的朋友的妈妈,英。能让男人一再抱怨教的是,破格提议给你不忍心拒绝。 另一方面,与不同的女人有很多对阵。但是,他早就给你的妈妈的妍熙单恋的状态。父母离婚似乎给哥哥们对阵.......
    俊元和泰俊是两个要好的朋友,彼此的妈妈也是好姐妹!
    两人戏剧性的爱上了对方的妈妈,而两个对孩子关“爱”有加的妈妈,似乎也对孩子们比较上心,你情我愿的伦理之爱自此开始....


  1. General
  2. Unique ID                      : 239865911683803673882721001682994296510 (0xB4747E838F8F292EBF64808DA17D76BE)
  3. Format                         : Matroska
  4. Format version                 : Version 4 / Version 2
  5. File size                      : 3.06 GiB
  6. Duration                       : 1 h 20 min
  7. Overall bit rate mode          : Variable
  8. Overall bit rate               : 5 456 kb/s
  9. Movie name                     : KOOK
  10. Encoded date                   : UTC 2018-07-24 16:25:35
  11. Writing application            : mkvmerge v9.4.2 ('So High') 64bit
  12. Writing library                : libebml v1.3.4 + libmatroska v1.4.5
  13. Attachments                    : 正式海报.jpg / fzlbfw.ttf / fzlbjw.ttf
  14. Video
  15. ID                             : 1
  16. Format                         : AVC
  17. Format/Info                    : Advanced Video Codec
  18. Format profile                 : High@L4.1
  19. Format settings, CABAC         : Yes
  20. Format settings, ReFrames      : 3 frames
  21. Codec ID                       : V_MPEG4/ISO/AVC
  22. Duration                       : 1 h 20 min
  23. Bit rate mode                  : Variable
  24. Bit rate                       : 5 120 kb/s
  25. Maximum bit rate               : 35.8 Mb/s
  26. Width                          : 1 920 pixels
  27. Height                         : 1 080 pixels
  28. Display aspect ratio           : 16:9
  29. Frame rate mode                : Constant
  30. Frame rate                     : 23.976 (24000/1001) FPS
  31. Color space                    : YUV
  32. Chroma subsampling             : 4:2:0
  33. Bit depth                      : 8 bits
  34. Scan type                      : Progressive
  35. Bits/(Pixel*Frame)             : 0.103
  36. Stream size                    : 2.87 GiB (94%)
  37. Writing library                : x264 core 142
  38. Encoding settings              : cabac=1 / ref=3 / deblock=1:0:0 / analyse=0x3:0x113 / me=umh / subme=8 / psy=1 / psy_rd=1.00:0.00 / mixed_ref=1 / me_range=16 / chroma_me=1 / trellis=1 / 8x8dct=1 / cqm=0 / deadzone=21,11 / fast_pskip=1 / chroma_qp_offset=-2 / threads=16 / lookahead_threads=2 / sliced_threads=0 / nr=0 / decimate=1 / interlaced=0 / bluray_compat=0 / constrained_intra=0 / bframes=1 / b_pyramid=0 / b_adapt=2 / b_bias=0 / direct=3 / weightb=1 / open_gop=0 / weightp=2 / keyint=250 / keyint_min=23 / scenecut=40 / intra_refresh=0 / rc_lookahead=50 / rc=2pass / mbtree=1 / bitrate=5120 / ratetol=1.0 / qcomp=0.60 / qpmin=0 / qpmax=69 / qpstep=4 / cplxblur=20.0 / qblur=0.5 / vbv_maxrate=35840 / vbv_bufsize=35840 / nal_hrd=vbr / filler=0 / ip_ratio=1.40 / aq=1:1.00
  39. Default                        : Yes
  40. Forced                         : No
  41. Audio
  42. ID                             : 2
  43. Format                         : AAC
  44. Format/Info                    : Advanced Audio Codec
  45. Format profile                 : LC
  46. Codec ID                       : A_AAC
  47. Duration                       : 1 h 20 min
  48. Bit rate                       : 320 kb/s
  49. Channel(s)                     : 2 channels
  50. Channel positions              : Front: L R
  51. Sampling rate                  : 48.0 kHz
  52. Frame rate                     : 46.875 FPS (1024 spf)
  53. Compression mode               : Lossy
  54. Delay relative to video        : -84 ms
  55. Stream size                    : 184 MiB (6%)
  56. Default                        : Yes
  57. Forced                         : No
  58. Text #1
  59. ID                             : 3
  60. Format                         : ASS
  61. Codec ID                       : S_TEXT/ASS
  62. Codec ID/Info                  : Advanced Sub Station Alpha
  63. Duration                       : 1 h 19 min
  64. Bit rate                       : 75 b/s
  65. Count of elements              : 756
  66. Compression mode               : Lossless
  67. Stream size                    : 44.1 KiB (0%)
  68. Title                          : 简体字幕
  69. Language                       : Chinese
  70. Default                        : Yes
  71. Forced                         : No
  72. Text #2
  73. ID                             : 4
  74. Format                         : ASS
  75. Codec ID                       : S_TEXT/ASS
  76. Codec ID/Info                  : Advanced Sub Station Alpha
  77. Duration                       : 1 h 19 min
  78. Bit rate                       : 75 b/s
  79. Count of elements              : 756
  80. Compression mode               : Lossless
  81. Stream size                    : 44.1 KiB (0%)
  82. Title                          : 繁体字幕
  83. Language                       : Chinese
  84. Default                        : No
  85. Forced                         : No

复制代码


磁力链接:
游客,如果您要查看本帖隐藏内容请回复

种子下载
https://ryanjie.ctfile.com/dir/13551128-30730949-08b31b/

两个妈妈.Two Mothers.2017.KR.WEB-DL.1080P.韩语中字.KOOK[3.06G]



睿派克技术论坛 - 论坛版权重要提醒:如果你需要回复隐藏贴获取资源,请使用回复框上方的快捷回复,灌水将严惩!
特别注意:任何将论坛原创软件,原创修改软件进行”二次加工“的行为,本论坛将追究其责任
特别提醒:下载安装前请核对MD5值和文件大小,请勿从其他论坛网站下载本论坛的软件!
1、本主题所有言论和图片纯属会员个人意见,与本论坛立场无关
2、本站所有主题由该帖子作者发表,该帖子作者与睿派克技术论坛享有帖子相关版权
3、其他单位或个人使用、转载或引用本文时必须同时征得该帖子作者__cc木槿睿派克技术论坛的同意
4、帖子作者须承担一切因本文发表而直接或间接导致的民事或刑事法律责任
5、本帖部分内容转载自其它媒体,但并不代表本站赞同其观点和对其真实性负责
6、如本帖侵犯到任何版权问题,请立即告知本站,本站将及时予与删除并致以最深的歉意
7、睿派克技术论坛管理员和版主有权不事先通知发贴者而删除本文

发表于 2018-11-13 20:46 | 显示全部楼层 <
magnet:?xt=urn:btih:1646E16A20A16F3D5C98F4484775B173931B1A0B

评分

1

查看全部评分

回复 支持 0 反对 1

使用道具 举报

     
发表于 2018-11-17 13:44 | 显示全部楼层 <
另一方面,与不同的女人有很多对阵。但是,他早就给你的妈妈的妍熙单恋的状态。父母离婚似乎给哥哥们对阵.......
    俊元和泰俊是两个要好的朋友,彼此的妈妈也是好姐妹!

回复 支持 反对

使用道具 举报

     
发表于 2018-11-13 20:20 | 显示全部楼层 <
另一方面,与不同的女人有很多对阵。但是,他早就给你的妈妈的妍熙单恋的状态。父母离婚似乎给哥哥们对阵.......
    俊元和泰俊是两个要好的朋友,彼此的妈妈也是好姐妹!

评分

1

查看全部评分

回复 支持 反对

使用道具 举报

     
 成长值: 6
发表于 2018-11-13 15:05 | 显示全部楼层 <
链接呢?飞了?

点评

嗯嗯,飞了  详情 回复 发表于 2018-11-13 15:07
回复 支持 反对

使用道具 举报

     
 成长值: 2187
发表于 2018-11-13 15:07 | 显示全部楼层 <

嗯嗯,飞了

回复 支持 反对

使用道具 举报

     
 成长值: 2187
发表于 2018-11-13 15:24 | 显示全部楼层 <
啥也不说了,楼主就是给力!

回复 支持 反对

使用道具 举报

     
发表于 2018-11-13 15:30 | 显示全部楼层 <
这个可以下载来看一下!

回复 支持 反对

使用道具 举报

     
发表于 2018-11-13 15:45 | 显示全部楼层 <
对楼猪只能说,你太伟大了!!

回复 支持 反对

使用道具 举报

发表于 2018-11-13 15:58 | 显示全部楼层 <
啥也不说了,楼主就是给力!

回复 支持 反对

使用道具 举报

     
发表于 2018-11-13 16:58 | 显示全部楼层 <
这个貌似很牛逼

回复 支持 反对

使用道具 举报

您需要登录后才可以回帖 登录 | 立即注册

本版积分规则